<?xml version="1.0" standalone="no"?>
<!DOCTYPE svg PUBLIC "-//W3C//DTD SVG 1.1//EN" "http://www.w3.org/Graphics/SVG/1.1/DTD/svg11.dtd" >
<svg xmlns="http://www.w3.org/2000/svg">
<metadata>
This is a custom SVG webfont generated by Font Squirrel.
Copyright   : TCMB 2012 TL Simgesi Demo webmaster at tcmb gov tr Copyright c 2007 Stephen G Hartke lastname at gmail dot com Licensed under OFL 11 with Reserved Font Name Aurulent
</metadata>
<defs>
<font id="AbakuTLSymSansRegular" horiz-adv-x="1024" >
<font-face units-per-em="2048" ascent="1638" descent="-410" />
<missing-glyph horiz-adv-x="500" />
<glyph unicode=" " />
<glyph unicode="0" horiz-adv-x="1286" d="M184 698v129l308 111v72q-23 -10 -61 -24.5t-48 -16.5l-162 -60l-13 -4q-13 -4 -24 -6v129l308 109v239v240h161v-211v-209l492 178v-129l-492 -178v-35v-35l267 95l225 84v-63v-60q0 -8 -4 -9l-473 -170q-8 -4 -15 -8v-345v-345v-2v-2q186 23 330 141q158 129 211 322 q23 88 23 176h163q0 -199 -96 -375q-68 -135 -184 -233q-109 -96 -244 -148q-176 -68 -364 -47v400v401l-27 -10z" />
<glyph unicode="t" horiz-adv-x="1286" d="M184 698v129l308 111v72q-23 -10 -61 -24.5t-48 -16.5l-162 -60l-13 -4q-13 -4 -24 -6v129l308 109v239v240h161v-211v-209l492 178v-129l-492 -178v-35v-35l267 95l225 84v-63v-60q0 -8 -4 -9l-473 -170q-8 -4 -15 -8v-345v-345v-2v-2q186 23 330 141q158 129 211 322 q23 88 23 176h163q0 -199 -96 -375q-68 -135 -184 -233q-109 -96 -244 -148t-278 -52q-43 0 -86 5v400v401l-27 -10z" />
<glyph unicode="&#xa0;" />
<glyph unicode="&#xa8;" horiz-adv-x="1286" d="M184 698v129l308 111v72q-23 -10 -61 -24.5t-48 -16.5l-162 -60l-13 -4q-13 -4 -24 -6v129l308 109v239v240h161v-211v-209l492 178v-129l-492 -178v-35v-35l267 95l225 84v-63v-60q0 -8 -4 -9l-473 -170q-8 -4 -15 -8v-345v-345v-2v-2q186 23 330 141q158 129 211 322 q23 88 23 176h163q0 -199 -96 -375q-68 -135 -184 -233q-109 -96 -244 -148q-176 -68 -364 -47v400v401l-27 -10z" />
<glyph unicode="&#x2000;" horiz-adv-x="806" />
<glyph unicode="&#x2001;" horiz-adv-x="1615" />
<glyph unicode="&#x2002;" horiz-adv-x="806" />
<glyph unicode="&#x2003;" horiz-adv-x="1615" />
<glyph unicode="&#x2004;" horiz-adv-x="538" />
<glyph unicode="&#x2005;" horiz-adv-x="403" />
<glyph unicode="&#x2006;" horiz-adv-x="268" />
<glyph unicode="&#x2007;" horiz-adv-x="268" />
<glyph unicode="&#x2008;" horiz-adv-x="200" />
<glyph unicode="&#x2009;" horiz-adv-x="321" />
<glyph unicode="&#x200a;" horiz-adv-x="88" />
<glyph unicode="&#x2013;" d="M205 512v205h614v-205h-614z" />
<glyph unicode="&#x2014;" horiz-adv-x="2048" d="M205 512v205h1638v-205h-1638z" />
<glyph unicode="&#x202f;" horiz-adv-x="321" />
<glyph unicode="&#x205f;" horiz-adv-x="403" />
<glyph unicode="&#xe000;" horiz-adv-x="500" d="M0 0v0v0v0v0z" />
</font>
</defs>
</svg>
